<?xml version="1.0" standalone="no"?>
<!DOCTYPE svg PUBLIC "-//W3C//DTD SVG 1.1//EN" "http://www.w3.org/Graphics/SVG/1.1/DTD/svg11.dtd" >
<svg xmlns="http://www.w3.org/2000/svg">
<metadata></metadata>
<defs>
<font id="knockouthtf49-liteweight" horiz-adv-x="743" >
<font-face units-per-em="2048" ascent="1638" descent="-410" />
<missing-glyph horiz-adv-x="313" />
<glyph horiz-adv-x="2048" />
<glyph horiz-adv-x="2048" />
<glyph unicode="&#xd;" horiz-adv-x="2048" />
<glyph unicode=" "  horiz-adv-x="313" />
<glyph unicode="&#x09;" horiz-adv-x="313" />
<glyph unicode="&#xa0;" horiz-adv-x="313" />
<glyph unicode="!" horiz-adv-x="395" d="M86 772v592h223v-592l-78 -391h-69zM100 0v238h193v-238h-193z" />
<glyph unicode="&#x22;" horiz-adv-x="524" d="M47 948l68 416h166l-119 -416h-115zM268 948l105 416h170l-156 -416h-119z" />
<glyph unicode="#" horiz-adv-x="1165" d="M27 365v118h266l67 396h-276v120h297l63 365h134l-62 -365h254l61 365h136l-64 -365h244v-120h-264l-68 -396h275v-118h-297l-62 -365h-133l61 365h-253l-62 -365h-133l61 365h-245zM428 483h252l70 396h-254z" />
<glyph unicode="$" horiz-adv-x="858" d="M68 322v94h219v-86q0 -77 36 -116.5t103 -39.5q64 0 99.5 38t35.5 105q0 77 -46.5 137.5t-158.5 149.5q-57 44 -98.5 83t-84.5 92.5t-66 115.5t-23 129q0 133 69 231.5t195 126.5v162h170v-158q124 -23 198.5 -117.5t74.5 -226.5v-88h-218v86q0 68 -33.5 108t-95.5 40 q-54 0 -88 -34t-34 -95q0 -50 24 -95t49 -70.5t89 -83.5q5 -5 8 -7.5t7.5 -7t8.5 -7.5q39 -32 60 -49.5t56.5 -50t55.5 -57t45.5 -60.5t39 -69.5t23 -76t9.5 -87.5q0 -137 -76 -236t-203 -125v-157h-170v155q-132 23 -206 115t-74 232z" />
<glyph unicode="%" horiz-adv-x="1167" d="M61 899v283q0 96 57.5 153.5t147.5 57.5q91 0 149 -57t58 -154v-283q0 -97 -58 -154t-149 -57q-90 0 -147.5 57.5t-57.5 153.5zM119 20l852 1387l86 -66l-852 -1386zM199 870q0 -29 19 -48t48 -19q31 0 50.5 19t19.5 48v342q0 29 -19.5 48.5t-50.5 19.5q-29 0 -48 -19.5 t-19 -48.5v-342zM702 180v283q0 96 57.5 153.5t147.5 57.5q91 0 149 -57t58 -154v-283q0 -98 -58 -155.5t-149 -57.5q-90 0 -147.5 57.5t-57.5 155.5zM840 150q0 -29 19 -48.5t48 -19.5q31 0 51.5 19.5t20.5 48.5v344q0 29 -20.5 47t-51.5 18q-29 0 -48 -18t-19 -47v-344z " />
<glyph unicode="&#x26;" horiz-adv-x="1138" d="M61 326q0 246 252 417q-67 153 -67 287q0 165 89 265t234 100q132 0 203.5 -84.5t71.5 -218.5q0 -118 -68.5 -213t-206.5 -189q78 -199 150 -311q41 68 66.5 160.5t25.5 165.5h180q0 -115 -42 -245t-113 -235q55 -55 100 -55q59 0 59 70v90h125v-129q0 -113 -54.5 -172.5 t-152.5 -59.5q-104 0 -217 107q-126 -107 -288 -107q-151 0 -249 104t-98 253zM295 346q0 -80 41.5 -124t118.5 -44q60 0 108 41q-85 116 -174 330q-94 -78 -94 -203zM463 1038q0 -81 39 -190q73 51 110 113t37 118q0 51 -21 80t-61 29q-49 0 -76.5 -41t-27.5 -109z" />
<glyph unicode="'" horiz-adv-x="339" d="M70 948l77 416h207l-164 -416h-120z" />
<glyph unicode="(" horiz-adv-x="645" d="M168 616q0 296 108 543t318 414l61 -68q-136 -166 -206 -382.5t-70 -506.5q0 -289 70 -504.5t206 -381.5l-61 -70q-210 167 -318 413.5t-108 542.5z" />
<glyph unicode=")" horiz-adv-x="645" d="M-8 -270q136 167 207 382t71 504q0 549 -278 889l63 68q209 -167 317.5 -414.5t108.5 -542.5t-108.5 -542t-317.5 -414z" />
<glyph unicode="*" horiz-adv-x="620" d="M57 1194l37 66q6 10 18 10.5t19 -6.5q62 -35 141 -105q-24 91 -24 174q0 31 24 31h74q23 0 23 -31q0 -82 -23 -174q90 80 141 109q26 13 37 -6l39 -66q4 -10 -0.5 -20t-13.5 -13q-70 -43 -162 -69q80 -21 162 -68q10 -5 14.5 -14.5t-0.5 -20.5l-37 -63 q-5 -11 -17.5 -11.5t-19.5 5.5q-75 44 -139 106q23 -112 23 -176q0 -10 -6.5 -19.5t-16.5 -9.5h-76q-22 0 -22 29q0 86 22 176q-70 -68 -141 -108q-7 -5 -19 -4.5t-18 8.5l-37 65q-5 11 -0.5 20.5t13.5 14.5q80 45 161 68q-94 29 -161 69q-26 13 -15 33z" />
<glyph unicode="+" horiz-adv-x="700" d="M63 614v168h205v215h166v-215h205v-168h-205v-215h-166v215h-205z" />
<glyph unicode="," horiz-adv-x="360" d="M63 -135q51 0 81 34.5t30 100.5h-92v260h197v-233q0 -99 -56.5 -160.5t-159.5 -61.5v60z" />
<glyph unicode="-" horiz-adv-x="530" d="M51 539v172h428v-172h-428z" />
<glyph unicode="." horiz-adv-x="360" d="M82 0v260h197v-260h-197z" />
<glyph unicode="/" horiz-adv-x="532" d="M8 -131l379 1624h141l-381 -1624h-139z" />
<glyph unicode="0" horiz-adv-x="886" d="M80 324v714q0 160 98.5 257.5t263.5 97.5q167 0 266 -97.5t99 -257.5v-714q0 -159 -99.5 -257t-265.5 -98q-165 0 -263.5 98t-98.5 257zM313 307q0 -51 35 -85t94 -34q60 0 95.5 34t35.5 85v750q0 51 -35.5 85t-95.5 34q-59 0 -94 -34t-35 -85v-750z" />
<glyph unicode="1" horiz-adv-x="505" d="M135 0v1255q55 0 81 31t26 78h129v-1364h-236z" />
<glyph unicode="2" horiz-adv-x="811" d="M51 0v72q0 160 58 290t223 316q114 121 159.5 201t45.5 168q0 137 -125 137t-125 -142v-124h-213v145q0 87 36 161t113.5 122.5t184.5 48.5q93 0 163 -28.5t110 -79t59.5 -112.5t19.5 -135q0 -127 -65.5 -242.5t-215.5 -256.5q-168 -183 -168 -324h439v-217h-699z" />
<glyph unicode="3" horiz-adv-x="811" d="M61 293v129h213v-103q0 -139 123 -139q61 0 92 33.5t31 95.5v199q0 92 -100 92h-105v180h105q100 0 100 94v181q0 61 -31.5 95t-91.5 34q-123 0 -123 -140v-104h-213v131q0 86 35 158t112 119t185 47q165 0 262 -90.5t97 -239.5v-139q0 -89 -43 -151t-119 -77 q76 -22 119 -79.5t43 -145.5v-174q0 -149 -97 -239.5t-262 -90.5q-158 0 -245 95t-87 229z" />
<glyph unicode="4" horiz-adv-x="806" d="M25 291v172l446 901h201v-877h110v-196h-110v-291h-219v291h-428zM244 487h209v437z" />
<glyph unicode="5" horiz-adv-x="815" d="M66 293v115h210v-89q0 -64 33 -101.5t92 -37.5q61 0 93 34t32 99v308q0 50 -28.5 80t-73.5 30q-52 0 -88 -31t-49 -77l-205 30l39 711h635q-9 -117 -43.5 -166t-114.5 -49h-285l-22 -342q75 106 231 106q107 0 171.5 -70.5t64.5 -183.5v-354q0 -153 -97.5 -244.5 t-263.5 -91.5q-156 0 -243.5 96t-87.5 228z" />
<glyph unicode="6" horiz-adv-x="854" d="M80 324v710q0 163 98 262t264 99q106 0 184 -48t115 -120t37 -156v-110h-209v83q0 140 -131 140q-62 0 -94.5 -37t-32.5 -103v-321q84 106 228 106q120 0 187 -70.5t67 -185.5v-249q0 -159 -96 -257t-261 -98q-164 0 -260 98t-96 257zM311 305q0 -56 34 -90.5t91 -34.5 q59 0 93 32.5t34 84.5v246q0 53 -30.5 83.5t-92.5 30.5q-60 0 -94.5 -31.5t-34.5 -82.5v-238z" />
<glyph unicode="7" horiz-adv-x="778" d="M51 1141v223h707v-121q-170 -340 -252 -628t-86 -615h-260q6 275 108 584.5t250 556.5h-467z" />
<glyph unicode="8" horiz-adv-x="866" d="M74 299v166q0 77 35 137t94 88q-59 26 -93 86t-34 139v150q0 149 96 239.5t260 90.5q166 0 262.5 -90.5t96.5 -239.5v-150q0 -79 -34 -139t-93 -86q60 -28 95.5 -88t35.5 -137v-166q0 -149 -98.5 -239.5t-264.5 -90.5q-164 0 -261 90.5t-97 239.5zM303 309q0 -59 36 -94 t93 -35q58 0 95.5 35t37.5 94v191q0 50 -35 85.5t-98 35.5q-61 0 -95 -35t-34 -86v-191zM303 874q0 -49 34 -84.5t95 -35.5q62 0 96.5 35.5t34.5 84.5v181q0 59 -36.5 94t-94.5 35q-57 0 -93 -35t-36 -94v-181z" />
<glyph unicode="9" horiz-adv-x="870" d="M76 776v264q0 159 96 256t260 97q169 0 265 -97t96 -258v-714q0 -160 -100.5 -257.5t-266.5 -97.5q-160 0 -253 93.5t-93 226.5v94h207v-66q0 -67 35.5 -102t103.5 -35t100.5 36t32.5 99v303q-39 -50 -90 -78t-129 -28q-123 0 -193.5 74t-70.5 190zM307 799 q0 -52 32 -84.5t93 -32.5q59 0 93 33.5t34 83.5v262q0 53 -33 88t-94 35q-58 0 -91.5 -33t-33.5 -84v-268z" />
<glyph unicode=":" horiz-adv-x="360" d="M82 0v260h197v-260h-197zM82 639v260h197v-260h-197z" />
<glyph unicode=";" horiz-adv-x="360" d="M63 -135q51 0 81 34.5t30 100.5h-92v260h197v-233q0 -99 -56.5 -160.5t-159.5 -61.5v60zM82 639v260h197v-260h-197z" />
<glyph unicode="&#x3c;" horiz-adv-x="950" d="M104 655v56l695 448v-207l-408 -270l408 -270v-207z" />
<glyph unicode="=" horiz-adv-x="688" d="M55 440v176h578v-176h-578zM55 780v174h578v-174h-578z" />
<glyph unicode="&#x3e;" horiz-adv-x="950" d="M154 205v209l407 268l-407 270v207l692 -450v-54z" />
<glyph unicode="?" horiz-adv-x="753" d="M41 913v146q0 148 84 242t244 94q91 0 159.5 -27.5t109 -75.5t60 -107.5t19.5 -129.5q0 -115 -49.5 -213t-153.5 -197q-60 -57 -82 -114t-22 -134h-162q0 121 32.5 202t129.5 216q79 110 79 219q0 79 -28.5 114.5t-89.5 35.5q-121 0 -121 -148v-123h-209zM229 0v238h193 v-238h-193z" />
<glyph unicode="@" horiz-adv-x="1294" d="M51 631q0 185 81 337.5t223 240t313 87.5q117 0 215.5 -35.5t164.5 -92.5t112 -132t66.5 -152t20.5 -153q0 -113 -39 -209.5t-120.5 -158.5t-190.5 -62q-82 0 -128.5 45t-43.5 119q-34 -69 -89.5 -108.5t-117.5 -39.5q-79 0 -127.5 57t-48.5 152q0 67 25 140.5t67 136 t104.5 103t129.5 40.5q56 0 91.5 -31t41.5 -84l33 99h155l-125 -387q-22 -66 -4 -107t76 -41q89 0 149 92.5t60 245.5q0 210 -133.5 340.5t-343.5 130.5q-147 0 -265.5 -76.5t-183.5 -207.5t-65 -289q0 -248 144.5 -409t369.5 -161q204 0 348 134l57 -70 q-166 -156 -405 -156q-172 0 -313 84.5t-222.5 236.5t-81.5 341zM494 535q0 -53 22 -81t62 -28q48 0 85 42.5t58 111.5l51 172q0 42 -18.5 68t-57.5 26q-57 0 -105.5 -55.5t-72.5 -126t-24 -129.5z" />
<glyph unicode="A" horiz-adv-x="845" d="M6 0l275 1364h284l273 -1364h-258l-45 268h-242l-49 -268h-238zM328 469h174l-82 526z" />
<glyph unicode="B" horiz-adv-x="888" d="M88 0v1364h426q141 0 221 -75t80 -214v-147q0 -195 -162 -230q168 -45 168 -231v-178q0 -140 -80.5 -214.5t-222.5 -74.5h-430zM344 209h143q88 0 88 98v178q0 109 -100 109h-131v-385zM344 780h127q100 0 100 107v170q0 98 -90 98h-137v-375z" />
<glyph unicode="C" horiz-adv-x="890" d="M74 344v676q0 162 107 268.5t286 106.5q176 0 272.5 -99t96.5 -258v-166h-228v164q0 62 -35 98.5t-102 36.5t-103 -36t-36 -95v-716q0 -59 36 -95t103 -36t102 36.5t35 98.5v164h228v-166q0 -159 -96.5 -258t-272.5 -99q-179 0 -286 106.5t-107 268.5z" />
<glyph unicode="D" horiz-adv-x="927" d="M88 0v1364h393q176 0 274.5 -102t98.5 -267v-639q0 -165 -97.5 -260.5t-275.5 -95.5h-393zM342 219h121q135 0 135 150v624q0 152 -135 152h-121v-926z" />
<glyph unicode="E" horiz-adv-x="788" d="M88 0v1364h651v-219h-397v-338h274v-201h-274v-379h397v-227h-651z" />
<glyph unicode="F" horiz-adv-x="751" d="M88 0v1364h637v-213h-383v-358h283v-213h-283v-580h-254z" />
<glyph unicode="G" horiz-adv-x="913" d="M74 326v712q0 147 106 251t283 104t277 -101.5t100 -253.5v-141h-244v152q0 53 -33.5 87.5t-97.5 34.5t-98.5 -36.5t-34.5 -90.5v-727q0 -54 36 -90.5t99 -36.5q64 0 99.5 36.5t35.5 90.5v191h-133v184h379v-692h-139l-35 109q-33 -67 -99.5 -103.5t-150.5 -36.5 q-163 0 -256.5 101.5t-93.5 255.5z" />
<glyph unicode="H" horiz-adv-x="968" d="M88 0v1364h254v-578h285v578h256v-1364h-256v559h-285v-559h-254z" />
<glyph unicode="I" horiz-adv-x="432" d="M88 0v1364h254v-1364h-254z" />
<glyph unicode="J" horiz-adv-x="851" d="M39 324v219h244v-224q0 -126 116 -126q115 0 115 126v1045h256v-1028q0 -166 -97.5 -266.5t-269.5 -100.5q-169 0 -266.5 96.5t-97.5 258.5z" />
<glyph unicode="K" horiz-adv-x="899" d="M88 0v1364h254v-625l274 625h256l-268 -576l281 -788h-267l-188 561l-88 -180v-381h-254z" />
<glyph unicode="L" horiz-adv-x="747" d="M88 0v1364h254v-1139h381v-225h-635z" />
<glyph unicode="M" horiz-adv-x="1226" d="M88 0v1364h342l141 -692l43 -252l45 252l140 692h340v-1364h-240v989l-55 -297l-146 -692h-192l-137 692l-54 297v-989h-227z" />
<glyph unicode="N" horiz-adv-x="964" d="M86 0v1364h219l252 -592l90 -217v809h230v-1364h-197l-264 582l-97 217v-799h-233z" />
<glyph unicode="O" horiz-adv-x="921" d="M74 342v680q0 164 105.5 267.5t281.5 103.5q177 0 282 -103.5t105 -267.5v-680q0 -165 -105 -269t-282 -104q-176 0 -281.5 104t-105.5 269zM332 326q0 -61 34 -97t95 -36q62 0 96.5 36t34.5 97v712q0 61 -34.5 97t-96.5 36q-61 0 -95 -36t-34 -97v-712z" />
<glyph unicode="P" horiz-adv-x="864" d="M88 0v1364h420q146 0 227.5 -80t81.5 -227v-230q0 -145 -81.5 -225t-227.5 -80h-166v-522h-254zM342 719h139q90 0 90 102v232q0 102 -90 102h-139v-436z" />
<glyph unicode="Q" horiz-adv-x="923" d="M74 334v696q0 157 105.5 260t281.5 103t281.5 -103t105.5 -260v-698q0 -86 -33 -142q35 -28 111 -28v-162q-42 -31 -117 -31q-41 0 -82 18t-65 44q-92 -62 -213 -62q-169 0 -272 103.5t-103 261.5zM332 315q0 -52 35 -87t94 -35q47 0 74 18l-56 51l111 109v678 q0 52 -34 87t-95 35q-59 0 -94 -35t-35 -87v-734z" />
<glyph unicode="R" horiz-adv-x="899" d="M88 0v1364h420q142 0 226.5 -78.5t84.5 -218.5v-193q0 -162 -153 -210q76 -21 116.5 -79t40.5 -128v-250q0 -87 49 -139v-76h-153q-139 0 -139 201v256q0 50 -27 83t-78 33h-133v-565h-254zM342 754h129q100 0 100 108v195q0 98 -90 98h-139v-401z" />
<glyph unicode="S" horiz-adv-x="854" d="M49 322v94h234v-80q0 -76 35.5 -116t103.5 -40q66 0 100.5 36.5t34.5 100.5q0 78 -48 140t-157 143q-60 43 -105.5 83.5t-91 94.5t-70 117t-24.5 131q0 101 41 182.5t127 133t205 51.5q160 0 259.5 -98.5t99.5 -252.5v-88h-232v82q0 66 -33.5 106t-95.5 40 q-56 0 -89.5 -33t-33.5 -90q0 -43 11.5 -76.5t42 -68.5t66 -64t99.5 -76q89 -67 145.5 -125t94 -136.5t37.5 -166.5q0 -165 -104.5 -271t-272.5 -106q-174 0 -276.5 96.5t-102.5 256.5z" />
<glyph unicode="T" horiz-adv-x="798" d="M20 1139v225h758v-225h-250v-1139h-256v1139h-252z" />
<glyph unicode="U" horiz-adv-x="931" d="M84 315v1049h258v-1049q0 -60 33 -92.5t94 -32.5q63 0 96 32.5t33 92.5v1049h248v-1049q0 -153 -105.5 -249.5t-271.5 -96.5q-167 0 -276 96.5t-109 249.5z" />
<glyph unicode="V" horiz-adv-x="864" d="M12 1364h262l166 -940l170 940h248l-303 -1364h-246z" />
<glyph unicode="W" horiz-adv-x="1247" d="M12 1364h252l123 -901l152 901h196l139 -901l132 901h235l-252 -1364h-227l-137 803l-146 -803h-225z" />
<glyph unicode="X" horiz-adv-x="876" d="M12 0l281 688l-264 676h266l149 -471l164 471h250l-272 -655l274 -709h-266l-160 471l-174 -471h-248z" />
<glyph unicode="Y" horiz-adv-x="851" d="M-4 1364h266l176 -555l168 555h254l-309 -807v-557h-254v557z" />
<glyph unicode="Z" horiz-adv-x="813" d="M31 0v80l442 1065h-416v219h719v-80l-436 -1059h420v-225h-729z" />
<glyph unicode="[" horiz-adv-x="591" d="M190 -307v1849h400v-153h-232v-1545h232v-151h-400z" />
<glyph unicode="\" horiz-adv-x="532" d="M10 1493h140l378 -1624h-137z" />
<glyph unicode="]" horiz-adv-x="591" d="M2 -156h236v1545h-236v153h399v-1849h-399v151z" />
<glyph unicode="^" horiz-adv-x="567" d="M27 1112v57q56 0 102 49.5t70 145.5h170q26 -97 71.5 -146t102.5 -49v-57q-46 -16 -90 -16q-64 0 -109.5 41.5t-62.5 117.5q-19 -76 -65.5 -117.5t-111.5 -41.5q-34 0 -77 16z" />
<glyph unicode="_" horiz-adv-x="690" d="M0 0h690v-174h-690v174z" />
<glyph unicode="`" horiz-adv-x="372" d="M27 1389h206l78 -281h-121z" />
<glyph unicode="a" horiz-adv-x="735" d="M43 236v28q0 58 20 105.5t52.5 81t85 61.5t107.5 46.5t130 37.5v141q0 86 -84 86q-43 0 -61.5 -22t-18.5 -68v-71h-196v61q0 124 72.5 200t214.5 76t212 -81.5t70 -217.5v-512q0 -48 49 -51v-153h-51q-132 0 -160 125q-72 -125 -219 -125q-99 0 -161 67.5t-62 184.5z M248 238q0 -41 21.5 -67t60.5 -26q45 0 76.5 29.5t31.5 73.5v213q-98 -22 -144 -61.5t-46 -106.5v-55z" />
<glyph unicode="b" horiz-adv-x="763" d="M82 0v1364h215v-492q69 127 197 127q91 0 145.5 -74.5t54.5 -185.5v-485q0 -121 -60 -195.5t-167 -74.5q-68 0 -122.5 32t-84.5 97l-24 -113h-154zM297 268q0 -52 27 -82t67 -30q44 0 69 30t25 86v430q0 58 -24 87.5t-68 29.5q-43 0 -69.5 -29.5t-26.5 -80.5v-441z" />
<glyph unicode="c" horiz-adv-x="706" d="M70 299v383q0 145 83 231t218 86q134 0 209 -84t75 -231v-63h-182v96q0 50 -25 79t-71 29q-47 0 -72.5 -29.5t-25.5 -82.5v-445q0 -53 25.5 -81.5t72.5 -28.5q46 0 71 29t25 77v98h182v-65q0 -148 -74.5 -230.5t-209.5 -82.5t-218 84.5t-83 230.5z" />
<glyph unicode="d" horiz-adv-x="763" d="M70 254v477q0 115 61 191.5t152 76.5q62 0 103.5 -23t80.5 -73v461h215v-1364h-166l-12 113q-28 -65 -82 -97t-121 -32q-108 0 -169.5 74.5t-61.5 195.5zM279 272q0 -56 25 -86t69 -30q40 0 67 30t27 82v443q0 52 -25.5 82t-68.5 30q-44 0 -69 -30t-25 -86v-435z" />
<glyph unicode="e" horiz-adv-x="724" d="M70 295v393q0 138 83.5 224.5t217.5 86.5t213.5 -86t79.5 -225v-217h-385v-211q0 -47 24.5 -74.5t69.5 -27.5q96 0 96 102v96h195v-63q0 -140 -79.5 -224.5t-213.5 -84.5t-217.5 86t-83.5 225zM279 573h186v148q0 48 -24 76t-68 28t-69 -28t-25 -76v-148z" />
<glyph unicode="f" horiz-adv-x="514" d="M37 797v176h108v76q0 151 71 233t216 82h68v-170h-35q-60 0 -84.5 -28.5t-24.5 -86.5v-106h138v-176h-132v-797h-217v797h-108z" />
<glyph unicode="g" horiz-adv-x="745" d="M47 -57q0 54 33.5 96.5t93.5 62.5q-55 20 -85 60t-30 88q0 53 43 100t103 56q-61 24 -95 92t-34 151v64q0 121 85.5 203.5t211.5 82.5q37 0 75 -8t41 -8q60 0 82.5 28t22.5 79h156q6 -41 6 -82q0 -59 -29.5 -92t-73.5 -33q-32 0 -65 16q84 -81 84 -184v-72 q0 -124 -82.5 -202.5t-216.5 -78.5q-43 0 -68 7q-32 0 -52 -20t-20 -48q0 -33 37 -49t131 -16q159 0 237.5 -65t78.5 -179v-47q0 -128 -89 -206.5t-245 -78.5q-146 0 -241 66t-95 172v45zM244 -23v-51q0 -44 36.5 -71t104.5 -27q70 0 104.5 27.5t34.5 72.5v52q0 94 -139 94 q-70 0 -105.5 -26.5t-35.5 -70.5zM276 616q0 -44 26 -73t71 -29q43 0 69.5 29t26.5 73v115q0 45 -26.5 75t-69.5 30q-45 0 -71 -29.5t-26 -75.5v-115z" />
<glyph unicode="h" horiz-adv-x="776" d="M82 0v1364h215v-514q31 70 85.5 109.5t119.5 39.5q93 0 145.5 -66.5t52.5 -178.5v-754h-215v725q0 44 -24 71t-62 27q-42 0 -72 -45.5t-30 -89.5v-688h-215z" />
<glyph unicode="i" horiz-adv-x="378" d="M82 0v983h215v-983h-215zM84 1114v207h209v-207h-209z" />
<glyph unicode="j" horiz-adv-x="376" d="M-43 -164h23q60 0 81 21.5t21 70.5v1055h215v-1016q0 -144 -65.5 -219.5t-211.5 -75.5h-63v164zM84 1114v207h209v-207h-209z" />
<glyph unicode="k" d="M82 0v1364h217v-834l195 455h211l-191 -420l211 -565h-213l-135 397l-78 -151v-246h-217z" />
<glyph unicode="l" horiz-adv-x="378" d="M82 0v1364h215v-1364h-215z" />
<glyph unicode="m" horiz-adv-x="1124" d="M82 0v983h186l19 -156q52 172 192 172q66 0 110.5 -43t65.5 -120q52 163 197 163q93 0 145 -65.5t52 -181.5v-752h-215v729q0 41 -19.5 65.5t-54.5 24.5q-41 0 -63.5 -44.5t-22.5 -92.5v-682h-217v733q0 40 -19 65t-51 25q-43 0 -66.5 -43.5t-23.5 -91.5v-688h-215z" />
<glyph unicode="n" horiz-adv-x="778" d="M82 0v983h186l13 -160q30 86 86 131t125 45q99 0 153.5 -66.5t54.5 -178.5v-754h-215v725q0 44 -23.5 71t-60.5 27q-45 0 -74.5 -45t-29.5 -90v-688h-215z" />
<glyph unicode="o" d="M70 299v383q0 145 83.5 231t219.5 86q135 0 218 -86t83 -231v-383q0 -146 -83 -230.5t-218 -84.5q-137 0 -220 84.5t-83 230.5zM281 258q0 -45 24.5 -72.5t67.5 -27.5q41 0 66.5 28t25.5 72v465q0 45 -25.5 73.5t-66.5 28.5q-43 0 -67.5 -28.5t-24.5 -73.5v-465z" />
<glyph unicode="p" horiz-adv-x="763" d="M82 -322v1305h166l12 -113q29 65 84 97t121 32q108 0 168.5 -74.5t60.5 -195.5v-491q0 -106 -60.5 -180t-146.5 -74q-63 0 -106 22.5t-84 73.5v-402h-215zM297 272q0 -50 25.5 -80t68.5 -30t67.5 30.5t24.5 86.5v430q0 57 -24 86.5t-68 29.5q-40 0 -67 -29t-27 -81v-443z " />
<glyph unicode="q" horiz-adv-x="763" d="M70 236v491q0 123 60.5 197.5t170.5 74.5q66 0 120.5 -33t82.5 -98l24 113h154v-1305h-215v430q-64 -124 -199 -124q-83 0 -140.5 74t-57.5 180zM279 276q0 -56 25 -86t69 -30q43 0 68.5 30.5t25.5 81.5v441q0 52 -27 81t-67 29q-44 0 -69 -29t-25 -85v-433z" />
<glyph unicode="r" horiz-adv-x="555" d="M82 0v983h182l15 -168q48 182 192 182q26 0 55 -6v-223q-41 6 -75 6q-63 0 -99 -22q-54 -34 -55 -107v-645h-215z" />
<glyph unicode="s" horiz-adv-x="686" d="M51 270v47h185v-53q0 -112 106 -112q102 0 102 92q0 57 -36 93t-131 94q-4 2 -6.5 3.5t-6 3.5t-6.5 4q-94 51 -144.5 118.5t-50.5 164.5q0 125 80 199.5t207 74.5q134 0 208.5 -76t74.5 -202v-37h-178v49q0 44 -25.5 68t-75.5 24q-90 0 -90 -82q0 -45 33 -80t115 -83 q111 -60 170 -131.5t59 -186.5q0 -116 -75.5 -197t-215.5 -81q-142 0 -220.5 78t-78.5 208z" />
<glyph unicode="t" horiz-adv-x="501" d="M23 797v176h120v172l207 55v-227h131v-176h-131v-496q0 -194 51 -301h-221q-47 105 -47 301v496h-110z" />
<glyph unicode="u" horiz-adv-x="782" d="M80 227v756h217v-727q0 -44 23.5 -71t60.5 -27q44 0 73 45t29 90v690h215v-983h-182l-10 147q-30 -79 -87.5 -121t-127.5 -42q-101 0 -156 66t-55 177z" />
<glyph unicode="v" horiz-adv-x="681" d="M12 983h211l92 -487l31 -189l31 189l88 487h203l-234 -983h-188z" />
<glyph unicode="w" horiz-adv-x="1005" d="M12 983h211l70 -483l24 -197l27 197l80 483h176l72 -483l28 -197l25 197l78 483h192l-209 -983h-174l-80 399l-28 187l-31 -187l-78 -399h-176z" />
<glyph unicode="x" horiz-adv-x="700" d="M16 0l215 487l-215 496h217l119 -324l117 324h215l-215 -477l215 -506h-217l-117 322l-119 -322h-215z" />
<glyph unicode="y" horiz-adv-x="681" d="M16 983h209l92 -485l31 -191l29 191l90 485h203l-238 -1014q-19 -79 -37.5 -126.5t-51 -90t-83.5 -61.5t-125 -19h-61v164h45q56 0 76.5 20t33.5 76l17 84z" />
<glyph unicode="z" horiz-adv-x="632" d="M37 0v104l325 695h-305v184h537v-104l-320 -686h310v-193h-547z" />
<glyph unicode="{" horiz-adv-x="634" d="M119 559v117h67q75 0 105.5 23t30.5 77q0 35 -25.5 91.5t-55.5 109.5t-55.5 129t-25.5 147q0 126 77.5 207.5t225.5 81.5h80v-147h-58q-125 0 -125 -140q0 -67 30 -147t59.5 -152t29.5 -120q0 -86 -43.5 -137t-144.5 -74q102 -21 145 -71.5t43 -137.5q0 -47 -29.5 -124 t-59.5 -162.5t-30 -152.5q0 -65 31 -102t94 -37h58v-145h-80q-148 0 -225.5 81t-77.5 206q0 71 25.5 148t55.5 130t55.5 109t25.5 90q0 54 -30.5 78t-105.5 24h-67z" />
<glyph unicode="|" horiz-adv-x="311" d="M88 -131v1624h135v-1624h-135z" />
<glyph unicode="}" horiz-adv-x="634" d="M94 -162h58q63 0 93.5 37t30.5 102q0 67 -29.5 152.5t-59 162.5t-29.5 124q0 87 43 137.5t143 71.5q-100 23 -143 74t-43 137q0 48 29.5 120t59 152t29.5 147q0 140 -124 140h-58v147h80q148 0 225.5 -81.5t77.5 -207.5q0 -71 -25.5 -147t-55.5 -129t-55.5 -109.5 t-25.5 -91.5q0 -54 30.5 -77t105.5 -23h65v-117h-65q-75 0 -105.5 -24t-30.5 -78q0 -34 25.5 -90t55.5 -109t55.5 -130t25.5 -148q0 -125 -77.5 -206t-225.5 -81h-80v145z" />
<glyph unicode="~" horiz-adv-x="581" d="M27 643q0 76 37 119t110 43q41 0 88 -24t85.5 -48t58.5 -24q43 0 43 47v49h83q27 -46 27 -86q0 -76 -38.5 -120t-112.5 -44q-40 0 -86.5 24.5t-84.5 49t-59 24.5q-41 0 -41 -45v-49h-84q-26 36 -26 84z" />
<glyph unicode="&#xa1;" horiz-adv-x="395" d="M86 211l76 391h69l78 -391v-592h-223v592zM100 745v238h193v-238h-193z" />
<glyph unicode="&#xa2;" d="M86 481v402q0 118 61.5 197.5t163.5 103.5v180h158v-184q95 -25 149 -103t54 -194v-72h-187v102q0 46 -25 74.5t-69 28.5q-42 0 -67 -29t-25 -74v-460q0 -47 24.5 -75t67.5 -28q45 0 69.5 27.5t24.5 75.5v100h187v-72q0 -117 -54 -194.5t-149 -102.5v-184h-158v182 q-102 22 -163.5 101t-61.5 198z" />
<glyph unicode="&#xa3;" horiz-adv-x="989" d="M0 147q0 85 58.5 139t162.5 54q69 0 137 -35q41 59 41 162q0 72 -32 125h-254v168h180q-68 140 -68 270q0 72 22.5 136.5t65.5 116t112 82t155 30.5q81 0 145 -28.5t101.5 -76.5t57 -105t19.5 -118v-113h-209v86q0 63 -29 99.5t-85 36.5q-113 0 -113 -136q0 -121 76 -280 h266v-168h-215q10 -52 10 -92q0 -141 -108 -275q80 -55 145 -55q104 0 104 117v125h197v-144q0 -141 -66 -220t-200 -79q-80 0 -155 29t-124 78q-77 -107 -204 -107q-87 0 -140 51t-53 127zM147 160q0 -19 16 -33t44 -14q26 0 50.5 15t37.5 40q-44 41 -90 41 q-27 0 -42.5 -13.5t-15.5 -35.5z" />
<glyph unicode="&#xa4;" horiz-adv-x="874" d="M74 344v676q0 165 99.5 270t277.5 105q177 0 272.5 -98.5t95.5 -260.5v-118h-225v116q0 64 -35.5 100.5t-103.5 36.5q-67 0 -103.5 -36.5t-36.5 -96.5v-270h379v-172h-379v-270q0 -60 36.5 -96.5t103.5 -36.5q68 0 103.5 36.5t35.5 100.5v116h225v-118 q0 -162 -95.5 -260.5t-272.5 -98.5q-178 0 -277.5 105t-99.5 270z" />
<glyph unicode="&#xa5;" horiz-adv-x="915" d="M51 1364h248l166 -528l158 528h241l-233 -627h190v-170h-250v-129h250v-172h-250v-266h-237v266h-246v172h246v129h-246v170h188z" />
<glyph unicode="&#xa7;" horiz-adv-x="894" d="M59 -8v57h226v-67q0 -55 42 -90t115 -35q152 0 152 123q0 38 -28.5 74t-74 67t-100.5 63t-110 69.5t-100.5 79t-74 98t-28.5 120.5q0 78 37.5 145.5t99.5 112.5q-60 56 -91.5 115.5t-31.5 136.5q0 143 92 238.5t267 95.5t269.5 -94t94.5 -234v-47h-223v61q0 115 -133 115 q-66 0 -96.5 -30t-30.5 -81q0 -37 28 -72.5t72.5 -66.5t98.5 -63.5t108 -70.5t98.5 -79.5t72.5 -97.5t28 -119q0 -175 -136 -268q63 -60 93 -118t30 -138q0 -65 -22.5 -122t-66.5 -103t-116 -72.5t-163 -26.5q-182 0 -290 87.5t-108 236.5zM283 604q0 -58 57.5 -113 t220.5 -141q32 13 51 44t19 67q0 60 -63 121.5t-214 140.5q-33 -15 -52 -48t-19 -71z" />
<glyph unicode="&#xa8;" horiz-adv-x="497" d="M29 1147v199h168v-199h-168zM299 1147v199h170v-199h-170z" />
<glyph unicode="&#xa9;" horiz-adv-x="1392" d="M45 668q0 178 84 328t234 238.5t333 88.5t333 -88.5t234.5 -238.5t84.5 -328t-84.5 -328t-234.5 -238t-333 -88q-137 0 -258.5 52t-207.5 140t-135.5 208.5t-49.5 253.5zM147 668q0 -154 69 -282t195.5 -204t284.5 -76q159 0 285.5 76t195 204t68.5 282 q0 155 -68.5 282.5t-195 203t-285.5 75.5q-158 0 -284.5 -75.5t-195.5 -203t-69 -282.5zM485 553v229q0 84 62 138.5t160 54.5q96 0 153.5 -52t57.5 -137v-38h-101v36q0 45 -28 74t-80 29q-53 0 -81 -30t-28 -77v-225q0 -46 28 -76t81 -30q52 0 80 28.5t28 73.5v39h101v-41 q0 -84 -57.5 -136.5t-153.5 -52.5q-98 0 -160 54.5t-62 138.5z" />
<glyph unicode="&#xaa;" horiz-adv-x="636" d="M55 829v19q0 104 81.5 157.5t240.5 86.5v104q0 30 -17.5 48t-50.5 18q-35 0 -50 -17.5t-15 -52.5v-51h-158v43q0 94 58 151.5t173 57.5t172.5 -61.5t57.5 -166.5v-370q0 -20 11.5 -28.5t45.5 -8.5v-119h-59q-106 0 -129 94q-60 -94 -180 -94q-80 0 -130.5 50.5 t-50.5 139.5zM221 831q0 -32 18 -50.5t52 -18.5q36 0 61 22t25 56v153q-80 -15 -118 -45t-38 -80v-37z" />
<glyph unicode="&#xab;" horiz-adv-x="864" d="M47 326v141q103 31 177 121.5t100 204.5h100q0 -120 -45.5 -230t-122.5 -168q77 -56 122.5 -164.5t45.5 -230.5h-100q-25 115 -99.5 204.5t-177.5 121.5zM428 326v141q101 31 174.5 121.5t99.5 204.5h101q0 -120 -45.5 -230t-122.5 -168q77 -56 122.5 -164.5t45.5 -230.5 h-101q-25 115 -98.5 204.5t-175.5 121.5z" />
<glyph unicode="&#xac;" horiz-adv-x="815" d="M96 496l189 188l-189 190l125 121l189 -188l186 188l121 -121l-189 -186l189 -190l-123 -123l-188 190l-187 -190z" />
<glyph unicode="&#xad;" horiz-adv-x="530" d="M51 539v172h428v-172h-428z" />
<glyph unicode="&#xae;" horiz-adv-x="1392" d="M45 668q0 178 84 328t234 238.5t333 88.5t333 -88.5t234.5 -238.5t84.5 -328t-84.5 -328t-234.5 -238t-333 -88q-137 0 -258.5 52t-207.5 140t-135.5 208.5t-49.5 253.5zM147 668q0 -154 69 -282t195.5 -204t284.5 -76q159 0 285.5 76t195 204t68.5 282 q0 155 -68.5 282.5t-195 203t-285.5 75.5q-158 0 -284.5 -75.5t-195.5 -203t-69 -282.5zM504 381v582h237q174 0 174 -162v-10q0 -56 -22 -86.5t-76 -40.5q51 -4 77 -40t26 -83v-60q0 -26 32 -26v-80h-30q-65 0 -90 20.5t-25 75.5v68q0 86 -78 86h-113v-244h-112zM616 702 h105q82 0 82 82v19q0 71 -72 71h-115v-172z" />
<glyph unicode="&#xaf;" horiz-adv-x="518" d="M25 1171v134h469v-134h-469z" />
<glyph unicode="&#xb0;" horiz-adv-x="567" d="M33 1149q0 100 71.5 173t180.5 73t179.5 -73t70.5 -173t-70.5 -172t-179.5 -72q-110 0 -181 72t-71 172zM162 1149q0 -61 32.5 -98t90.5 -37t90.5 37t32.5 98q0 60 -33 97.5t-90 37.5t-90 -37.5t-33 -97.5z" />
<glyph unicode="&#xb1;" horiz-adv-x="1064" d="M49 0v1008h967v-1008h-967zM154 100h757v807h-757v-807z" />
<glyph unicode="&#xb4;" horiz-adv-x="372" d="M86 1108l76 281h209l-164 -281h-121z" />
<glyph unicode="&#xb6;" horiz-adv-x="1118" d="M72 860v33q0 210 124 340.5t310 130.5h516v-1683h-145v1501h-144v-1501h-147v710h-80q-186 0 -310 130t-124 339zM410 735q0 -78 36.5 -122t100.5 -44h39v613h-39q-63 0 -100 -50t-37 -131v-266z" />
<glyph unicode="&#xb7;" horiz-adv-x="331" d="M66 549v262h200v-262h-200z" />
<glyph unicode="&#xb8;" horiz-adv-x="382" d="M23 -190l167 233l64 -47l-100 -137q21 14 73 14q77 0 121.5 -48t44.5 -126q0 -72 -53 -122t-131 -50q-51 0 -76 20v66h37q78 0 78 68v55q0 69 -78 69q-41 0 -84 -43z" />
<glyph unicode="&#xba;" horiz-adv-x="585" d="M49 877v278q0 108 69 173t175 65q108 0 177 -65t69 -173v-278q0 -108 -69 -173t-177 -65q-106 0 -175 65t-69 173zM217 844q0 -34 21 -55t55 -21t55 21t21 55v344q0 33 -21.5 54.5t-54.5 21.5t-54.5 -21.5t-21.5 -54.5v-344z" />
<glyph unicode="&#xbb;" horiz-adv-x="864" d="M59 0q0 122 45.5 230.5t122.5 164.5q-77 58 -122.5 168t-45.5 230h101q26 -114 99.5 -204.5t174.5 -121.5v-141q-102 -32 -175.5 -121.5t-98.5 -204.5h-101zM438 0q0 122 45.5 230.5t122.5 164.5q-77 58 -122.5 168t-45.5 230h101q26 -114 99.5 -204.5t176.5 -121.5v-141 q-103 -31 -177 -120.5t-99 -205.5h-101z" />
<glyph unicode="&#xbf;" horiz-adv-x="692" d="M-12 -72q0 115 48.5 213.5t151.5 196.5q61 57 84 114t23 132h162q0 -120 -33 -201t-131 -215q-78 -113 -78 -221q0 -78 29 -113t90 -35q119 0 119 148v123h209v-146q0 -148 -83 -242t-243 -94q-91 0 -160 27.5t-109 75.5t-59.5 107.5t-19.5 129.5zM283 745v238h192v-238 h-192z" />
<glyph unicode="&#xc0;" horiz-adv-x="845" d="M6 0l275 1364h284l273 -1364h-258l-45 268h-242l-49 -268h-238zM193 1722h206l78 -280h-121zM328 469h174l-82 526z" />
<glyph unicode="&#xc1;" horiz-adv-x="845" d="M6 0l275 1364h284l273 -1364h-258l-45 268h-242l-49 -268h-238zM328 469h174l-82 526zM356 1442l76 280h209l-164 -280h-121z" />
<glyph unicode="&#xc2;" horiz-adv-x="845" d="M6 0l275 1364h284l273 -1364h-258l-45 268h-242l-49 -268h-238zM168 1462v58q57 0 102.5 49t69.5 145h170q26 -96 72 -145t104 -49v-58q-43 -14 -92 -14q-63 0 -108 41t-64 117q-19 -76 -64.5 -117t-109.5 -41q-39 0 -80 14zM328 469h174l-82 526z" />
<glyph unicode="&#xc3;" horiz-adv-x="845" d="M6 0l275 1364h284l273 -1364h-258l-45 268h-242l-49 -268h-238zM147 1554q0 76 37.5 119t110.5 43q41 0 88 -24t85 -48t58 -24q43 0 43 47v49h84q27 -46 27 -86q0 -74 -39 -118t-113 -44q-40 0 -86 25t-84 49.5t-59 24.5q-41 0 -41 -47v-47h-84q-27 37 -27 81zM328 469 h174l-82 526z" />
<glyph unicode="&#xc4;" horiz-adv-x="845" d="M6 0l275 1364h284l273 -1364h-258l-45 268h-242l-49 -268h-238zM197 1481v198h168v-198h-168zM328 469h174l-82 526zM467 1481v198h170v-198h-170z" />
<glyph unicode="&#xc5;" horiz-adv-x="845" d="M6 0l275 1364h38q-63 44 -63 123q0 69 47 118.5t119 49.5q71 0 118.5 -49.5t47.5 -118.5q0 -37 -17.5 -70t-46.5 -53h41l273 -1364h-258l-45 268h-242l-49 -268h-238zM328 469h174l-82 526zM340 1487q0 -42 22 -67t60 -25t60 25t22 67q0 43 -22 68.5t-60 25.5t-60 -25.5 t-22 -68.5z" />
<glyph unicode="&#xc6;" horiz-adv-x="1265" d="M4 0l445 1364h768v-219h-398v-336h275v-203h-275v-379h398v-227h-654v268h-225l-84 -268h-250zM401 469h162v557z" />
<glyph unicode="&#xc7;" horiz-adv-x="890" d="M74 344v676q0 162 107 268.5t286 106.5q176 0 272.5 -99t96.5 -258v-166h-228v164q0 62 -35 98.5t-102 36.5t-103 -36t-36 -95v-716q0 -59 36 -95t103 -36t102 36.5t35 98.5v164h228v-166q0 -156 -94.5 -255t-264.5 -102l-80 -110q19 14 72 14q77 0 121.5 -48t44.5 -126 q0 -73 -52.5 -122.5t-131.5 -49.5q-51 0 -76 20v66h37q77 0 77 68v55q0 69 -77 69q-44 0 -84 -43l-64 48l121 167q-145 24 -228 125t-83 242z" />
<glyph unicode="&#xc8;" horiz-adv-x="788" d="M88 0v1364h651v-219h-397v-338h274v-201h-274v-379h397v-227h-651zM190 1722h207l78 -280h-121z" />
<glyph unicode="&#xc9;" horiz-adv-x="788" d="M88 0v1364h651v-219h-397v-338h274v-201h-274v-379h397v-227h-651zM326 1442l75 280h209l-164 -280h-120z" />
<glyph unicode="&#xca;" horiz-adv-x="788" d="M88 0v1364h651v-219h-397v-338h274v-201h-274v-379h397v-227h-651zM147 1462v58q57 0 102.5 49t69.5 145h170q26 -96 72 -145t105 -49v-58q-43 -14 -93 -14q-63 0 -108 41t-64 117q-19 -76 -64.5 -117t-109.5 -41q-39 0 -80 14z" />
<glyph unicode="&#xcb;" horiz-adv-x="788" d="M88 0v1364h651v-219h-397v-338h274v-201h-274v-379h397v-227h-651zM188 1481v198h168v-198h-168zM459 1481v198h170v-198h-170z" />
<glyph unicode="&#xcc;" horiz-adv-x="432" d="M-10 1722h207l77 -280h-120zM88 0v1364h254v-1364h-254z" />
<glyph unicode="&#xcd;" horiz-adv-x="432" d="M88 0v1364h254v-1364h-254zM143 1442l76 280h209l-164 -280h-121z" />
<glyph unicode="&#xce;" horiz-adv-x="432" d="M-39 1462v58q57 0 102.5 49t69.5 145h170q26 -96 72 -145t104 -49v-58q-43 -14 -92 -14q-63 0 -108 41t-64 117q-19 -76 -64.5 -117t-109.5 -41q-39 0 -80 14zM88 0v1364h254v-1364h-254z" />
<glyph unicode="&#xcf;" horiz-adv-x="432" d="M-6 1481v198h168v-198h-168zM88 0v1364h254v-1364h-254zM264 1481v198h170v-198h-170z" />
<glyph unicode="&#xd0;" horiz-adv-x="985" d="M-2 596v172h149v596h392q176 0 274 -101.5t98 -267.5v-639q0 -165 -97 -260.5t-275 -95.5h-392v596h-149zM401 217h119q137 0 137 152v624q0 152 -137 152h-119v-377h127v-172h-127v-379z" />
<glyph unicode="&#xd1;" horiz-adv-x="964" d="M86 0v1364h219l252 -592l90 -217v809h230v-1364h-197l-264 582l-97 217v-799h-233zM211 1554q0 76 37 119t110 43q41 0 88 -24t85.5 -48t58.5 -24q43 0 43 47v49h84q26 -44 26 -86q0 -75 -38.5 -118.5t-112.5 -43.5q-40 0 -86.5 25t-84.5 49.5t-59 24.5q-40 0 -40 -47 v-47h-84q-27 37 -27 81z" />
<glyph unicode="&#xd2;" horiz-adv-x="921" d="M74 342v680q0 164 105.5 267.5t281.5 103.5q177 0 282 -103.5t105 -267.5v-680q0 -165 -105 -269t-282 -104q-176 0 -281.5 104t-105.5 269zM238 1722h206l78 -280h-121zM332 326q0 -61 34 -97t95 -36q62 0 96.5 36t34.5 97v712q0 61 -34.5 97t-96.5 36q-61 0 -95 -36 t-34 -97v-712z" />
<glyph unicode="&#xd3;" horiz-adv-x="921" d="M74 342v680q0 164 105.5 267.5t281.5 103.5q177 0 282 -103.5t105 -267.5v-680q0 -165 -105 -269t-282 -104q-176 0 -281.5 104t-105.5 269zM332 326q0 -61 34 -97t95 -36q62 0 96.5 36t34.5 97v712q0 61 -34.5 97t-96.5 36q-61 0 -95 -36t-34 -97v-712zM395 1442l76 280 h209l-164 -280h-121z" />
<glyph unicode="&#xd4;" horiz-adv-x="921" d="M74 342v680q0 164 105.5 267.5t281.5 103.5q177 0 282 -103.5t105 -267.5v-680q0 -165 -105 -269t-282 -104q-176 0 -281.5 104t-105.5 269zM207 1462v58q57 0 102.5 49t69.5 145h170q26 -96 72 -145t104 -49v-58q-43 -14 -92 -14q-63 0 -108 41t-64 117 q-19 -76 -64.5 -117t-109.5 -41q-39 0 -80 14zM332 326q0 -61 34 -97t95 -36q62 0 96.5 36t34.5 97v712q0 61 -34.5 97t-96.5 36q-61 0 -95 -36t-34 -97v-712z" />
<glyph unicode="&#xd5;" horiz-adv-x="921" d="M74 342v680q0 164 105.5 267.5t281.5 103.5q177 0 282 -103.5t105 -267.5v-680q0 -165 -105 -269t-282 -104q-176 0 -281.5 104t-105.5 269zM186 1554q0 76 37.5 119t110.5 43q41 0 88 -24t85 -48t58 -24q43 0 43 47v49h84q27 -46 27 -86q0 -74 -39 -118t-113 -44 q-40 0 -86 25t-84 49.5t-59 24.5q-41 0 -41 -47v-47h-84q-27 37 -27 81zM332 326q0 -61 34 -97t95 -36q62 0 96.5 36t34.5 97v712q0 61 -34.5 97t-96.5 36q-61 0 -95 -36t-34 -97v-712z" />
<glyph unicode="&#xd6;" horiz-adv-x="921" d="M74 342v680q0 164 105.5 267.5t281.5 103.5q177 0 282 -103.5t105 -267.5v-680q0 -165 -105 -269t-282 -104q-176 0 -281.5 104t-105.5 269zM244 1481v198h168v-198h-168zM332 326q0 -61 34 -97t95 -36q62 0 96.5 36t34.5 97v712q0 61 -34.5 97t-96.5 36q-61 0 -95 -36 t-34 -97v-712zM514 1481v198h170v-198h-170z" />
<glyph unicode="&#xd7;" horiz-adv-x="815" d="M96 496l189 188l-189 190l125 121l189 -188l186 188l121 -121l-189 -186l189 -190l-123 -123l-188 190l-187 -190z" />
<glyph unicode="&#xd8;" horiz-adv-x="937" d="M35 0l82 158q-43 79 -43 184v680q0 164 105.5 267.5t281.5 103.5q155 0 260 -84l61 118l103 -63l-82 -156q45 -77 45 -186v-680q0 -165 -105 -269t-282 -104q-159 0 -262 86l-62 -118zM332 309q5 -53 39 -84.5t90 -31.5q62 0 96.5 36t34.5 97v479zM332 567l258 494 q-6 52 -39.5 81t-89.5 29q-61 0 -95 -36t-34 -97v-471z" />
<glyph unicode="&#xd9;" horiz-adv-x="931" d="M84 315v1049h258v-1049q0 -60 33 -92.5t94 -32.5q63 0 96 32.5t33 92.5v1049h248v-1049q0 -153 -105.5 -249.5t-271.5 -96.5q-167 0 -276 96.5t-109 249.5zM252 1722h207l78 -280h-121z" />
<glyph unicode="&#xda;" horiz-adv-x="931" d="M84 315v1049h258v-1049q0 -60 33 -92.5t94 -32.5q63 0 96 32.5t33 92.5v1049h248v-1049q0 -153 -105.5 -249.5t-271.5 -96.5q-167 0 -276 96.5t-109 249.5zM406 1442l75 280h209l-164 -280h-120z" />
<glyph unicode="&#xdb;" horiz-adv-x="931" d="M84 315v1049h258v-1049q0 -60 33 -92.5t94 -32.5q63 0 96 32.5t33 92.5v1049h248v-1049q0 -153 -105.5 -249.5t-271.5 -96.5q-167 0 -276 96.5t-109 249.5zM219 1462v58q57 0 102.5 49t69.5 145h170q26 -96 72 -145t104 -49v-58q-43 -14 -92 -14q-63 0 -108 41t-64 117 q-19 -76 -64.5 -117t-109.5 -41q-39 0 -80 14z" />
<glyph unicode="&#xdc;" horiz-adv-x="931" d="M84 315v1049h258v-1049q0 -60 33 -92.5t94 -32.5q63 0 96 32.5t33 92.5v1049h248v-1049q0 -153 -105.5 -249.5t-271.5 -96.5q-167 0 -276 96.5t-109 249.5zM254 1481v198h168v-198h-168zM524 1481v198h170v-198h-170z" />
<glyph unicode="&#xdd;" horiz-adv-x="851" d="M-4 1364h266l176 -555l168 555h254l-309 -807v-557h-254v557zM371 1442l75 280h209l-163 -280h-121z" />
<glyph unicode="&#xde;" horiz-adv-x="864" d="M88 0v1364h256v-229h166q143 0 225 -81.5t82 -226.5v-229q0 -146 -81.5 -226.5t-225.5 -80.5h-168v-291h-254zM342 489h141q47 0 67.5 25t20.5 78v231q0 52 -21 77.5t-67 25.5h-141v-437z" />
<glyph unicode="&#xdf;" horiz-adv-x="780" d="M86 0v1030q0 154 79.5 244t227.5 90q152 0 230.5 -86t78.5 -236v-96q0 -75 -29.5 -134.5t-86.5 -86.5q68 -30 96.5 -83t28.5 -140v-256q0 -125 -68.5 -193.5t-181.5 -68.5q-53 0 -80 24v109q115 0 115 112v312q0 54 -25.5 80t-85.5 26v158q121 0 121 113v151 q0 121 -100 121q-103 0 -103 -123v-1067h-217z" />
<glyph unicode="&#xe0;" horiz-adv-x="735" d="M43 236v28q0 58 20 105.5t52.5 81t85 61.5t107.5 46.5t130 37.5v141q0 86 -84 86q-43 0 -61.5 -22t-18.5 -68v-71h-196v61q0 124 72.5 200t214.5 76t212 -81.5t70 -217.5v-512q0 -48 49 -51v-153h-51q-132 0 -160 125q-72 -125 -219 -125q-99 0 -161 67.5t-62 184.5z M141 1389h207l78 -281h-121zM248 238q0 -41 21.5 -67t60.5 -26q45 0 76.5 29.5t31.5 73.5v213q-98 -22 -144 -61.5t-46 -106.5v-55z" />
<glyph unicode="&#xe1;" horiz-adv-x="735" d="M43 236v28q0 58 20 105.5t52.5 81t85 61.5t107.5 46.5t130 37.5v141q0 86 -84 86q-43 0 -61.5 -22t-18.5 -68v-71h-196v61q0 124 72.5 200t214.5 76t212 -81.5t70 -217.5v-512q0 -48 49 -51v-153h-51q-132 0 -160 125q-72 -125 -219 -125q-99 0 -161 67.5t-62 184.5z M248 238q0 -41 21.5 -67t60.5 -26q45 0 76.5 29.5t31.5 73.5v213q-98 -22 -144 -61.5t-46 -106.5v-55zM299 1108l76 281h209l-164 -281h-121z" />
<glyph unicode="&#xe2;" horiz-adv-x="735" d="M43 236v28q0 58 20 105.5t52.5 81t85 61.5t107.5 46.5t130 37.5v141q0 86 -84 86q-43 0 -61.5 -22t-18.5 -68v-71h-196v61q0 124 72.5 200t214.5 76t212 -81.5t70 -217.5v-512q0 -48 49 -51v-153h-51q-132 0 -160 125q-72 -125 -219 -125q-99 0 -161 67.5t-62 184.5z M111 1128v58q57 0 102.5 49t69.5 145h170q26 -96 72 -145t104 -49v-58q-43 -14 -92 -14q-63 0 -108 41t-64 117q-19 -76 -65 -117t-110 -41q-38 0 -79 14zM248 238q0 -41 21.5 -67t60.5 -26q45 0 76.5 29.5t31.5 73.5v213q-98 -22 -144 -61.5t-46 -106.5v-55z" />
<glyph unicode="&#xe3;" horiz-adv-x="735" d="M43 236v28q0 58 20 105.5t52.5 81t85 61.5t107.5 46.5t130 37.5v141q0 86 -84 86q-43 0 -61.5 -22t-18.5 -68v-71h-196v61q0 124 72.5 200t214.5 76t212 -81.5t70 -217.5v-512q0 -48 49 -51v-153h-51q-132 0 -160 125q-72 -125 -219 -125q-99 0 -161 67.5t-62 184.5z M90 1221q0 76 37.5 118.5t110.5 42.5q41 0 88 -24t85 -48t58 -24q43 0 43 47v49h84q27 -46 27 -86q0 -74 -39 -117.5t-113 -43.5q-40 0 -86 24.5t-84 49t-59 24.5q-41 0 -41 -47v-47h-84q-27 37 -27 82zM248 238q0 -41 21.5 -67t60.5 -26q45 0 76.5 29.5t31.5 73.5v213 q-98 -22 -144 -61.5t-46 -106.5v-55z" />
<glyph unicode="&#xe4;" horiz-adv-x="735" d="M43 236v28q0 58 20 105.5t52.5 81t85 61.5t107.5 46.5t130 37.5v141q0 86 -84 86q-43 0 -61.5 -22t-18.5 -68v-71h-196v61q0 124 72.5 200t214.5 76t212 -81.5t70 -217.5v-512q0 -48 49 -51v-153h-51q-132 0 -160 125q-72 -125 -219 -125q-99 0 -161 67.5t-62 184.5z M139 1147v199h168v-199h-168zM248 238q0 -41 21.5 -67t60.5 -26q45 0 76.5 29.5t31.5 73.5v213q-98 -22 -144 -61.5t-46 -106.5v-55zM410 1147v199h170v-199h-170z" />
<glyph unicode="&#xe5;" horiz-adv-x="735" d="M43 236v28q0 58 20 105.5t52.5 81t85 61.5t107.5 46.5t130 37.5v141q0 86 -84 86q-43 0 -61.5 -22t-18.5 -68v-71h-196v61q0 124 72.5 200t214.5 76t212 -81.5t70 -217.5v-512q0 -48 49 -51v-153h-51q-132 0 -160 125q-72 -125 -219 -125q-99 0 -161 67.5t-62 184.5z M195 1276q0 69 46.5 118.5t118.5 49.5t119 -49.5t47 -118.5q0 -68 -47 -117t-119 -49t-118.5 49t-46.5 117zM248 238q0 -41 21.5 -67t60.5 -26q45 0 76.5 29.5t31.5 73.5v213q-98 -22 -144 -61.5t-46 -106.5v-55zM281 1276q0 -42 20.5 -67t58.5 -25t60 25t22 67 q0 43 -22 68.5t-60 25.5t-58.5 -25.5t-20.5 -68.5z" />
<glyph unicode="&#xe6;" horiz-adv-x="1107" d="M45 236v28q0 58 20 105.5t52.5 81t85 61.5t107.5 46.5t130 37.5v131q0 92 -86 92q-84 0 -84 -90v-67h-188v61q0 122 69 199t193 77q138 0 209 -112q34 51 94.5 81.5t130.5 30.5q123 0 197 -86t74 -225v-217h-385v-205q0 -48 24 -76t72 -28q46 0 71 28.5t25 75.5v90h193 v-63q0 -139 -75 -224t-196 -85q-76 0 -139 29t-98 87q-83 -116 -254 -116q-112 0 -177 68t-65 184zM250 242q0 -41 21.5 -66.5t60.5 -25.5q45 0 76.5 30t31.5 74v207q-99 -22 -144.5 -61.5t-45.5 -106.5v-51zM664 573h186v144q0 47 -24.5 75.5t-67.5 28.5q-45 0 -69.5 -28.5 t-24.5 -75.5v-144z" />
<glyph unicode="&#xe7;" horiz-adv-x="706" d="M70 299v383q0 145 83 231t218 86q134 0 209 -84t75 -231v-63h-182v96q0 50 -25 79t-71 29q-47 0 -72.5 -29.5t-25.5 -82.5v-445q0 -53 25.5 -81.5t72.5 -28.5q46 0 71 29t25 77v98h182v-65q0 -142 -71 -224.5t-199 -88.5l-92 -125q19 14 72 14q78 0 122.5 -48t44.5 -126 q0 -72 -53.5 -122t-132.5 -50q-46 0 -76 20v66h37q80 0 80 68v55q0 69 -80 69q-42 0 -82 -43l-63 48l131 182q-103 22 -163 102.5t-60 204.5z" />
<glyph unicode="&#xe8;" horiz-adv-x="724" d="M70 295v393q0 138 83.5 224.5t217.5 86.5t213.5 -86t79.5 -225v-217h-385v-211q0 -47 24.5 -74.5t69.5 -27.5q96 0 96 102v96h195v-63q0 -140 -79.5 -224.5t-213.5 -84.5t-217.5 86t-83.5 225zM150 1389h206l78 -281h-121zM279 573h186v148q0 48 -24 76t-68 28t-69 -28 t-25 -76v-148z" />
<glyph unicode="&#xe9;" horiz-adv-x="724" d="M70 295v393q0 138 83.5 224.5t217.5 86.5t213.5 -86t79.5 -225v-217h-385v-211q0 -47 24.5 -74.5t69.5 -27.5q96 0 96 102v96h195v-63q0 -140 -79.5 -224.5t-213.5 -84.5t-217.5 86t-83.5 225zM279 573h186v148q0 48 -24 76t-68 28t-69 -28t-25 -76v-148zM311 1108 l76 281h209l-164 -281h-121z" />
<glyph unicode="&#xea;" horiz-adv-x="724" d="M70 295v393q0 138 83.5 224.5t217.5 86.5t213.5 -86t79.5 -225v-217h-385v-211q0 -47 24.5 -74.5t69.5 -27.5q96 0 96 102v96h195v-63q0 -140 -79.5 -224.5t-213.5 -84.5t-217.5 86t-83.5 225zM109 1128v58q57 0 102.5 49t69.5 145h170q26 -96 72 -145t104 -49v-58 q-43 -14 -92 -14q-63 0 -108.5 41t-64.5 117q-19 -76 -64.5 -117t-109.5 -41q-38 0 -79 14zM279 573h186v148q0 48 -24 76t-68 28t-69 -28t-25 -76v-148z" />
<glyph unicode="&#xeb;" horiz-adv-x="724" d="M70 295v393q0 138 83.5 224.5t217.5 86.5t213.5 -86t79.5 -225v-217h-385v-211q0 -47 24.5 -74.5t69.5 -27.5q96 0 96 102v96h195v-63q0 -140 -79.5 -224.5t-213.5 -84.5t-217.5 86t-83.5 225zM147 1147v199h168v-199h-168zM279 573h186v148q0 48 -24 76t-68 28t-69 -28 t-25 -76v-148zM418 1147v199h170v-199h-170z" />
<glyph unicode="&#xec;" horiz-adv-x="378" d="M-39 1389h207l78 -281h-121zM82 0v983h215v-983h-215z" />
<glyph unicode="&#xed;" horiz-adv-x="378" d="M82 0v983h215v-983h-215zM129 1108l76 281h209l-164 -281h-121z" />
<glyph unicode="&#xee;" horiz-adv-x="378" d="M-63 1128v58q57 0 102.5 49t69.5 145h170q26 -96 72 -145t104 -49v-58q-43 -14 -93 -14q-63 0 -108 41t-64 117q-19 -76 -64.5 -117t-109.5 -41q-38 0 -79 14zM82 0v983h215v-983h-215z" />
<glyph unicode="&#xef;" horiz-adv-x="378" d="M-33 1147v199h168v-199h-168zM82 0v983h215v-983h-215zM238 1147v199h170v-199h-170z" />
<glyph unicode="&#xf0;" horiz-adv-x="749" d="M70 297v430q0 107 62 181.5t153 74.5q58 0 100 -22.5t82 -71.5q-6 130 -61 223l-125 -55l-37 94l106 49q-65 82 -170 158v6h254q55 -45 88 -86l111 49l39 -94l-88 -39q96 -161 96 -379v-518q0 -144 -87.5 -228.5t-221.5 -84.5q-132 0 -216.5 84t-84.5 229zM279 256 q0 -42 26 -70t66 -28q41 0 68.5 28.5t27.5 69.5v451q0 51 -25.5 80.5t-68.5 29.5q-94 0 -94 -112v-449z" />
<glyph unicode="&#xf1;" horiz-adv-x="778" d="M82 0v983h186l13 -160q30 86 86 131t125 45q99 0 153.5 -66.5t54.5 -178.5v-754h-215v725q0 44 -23.5 71t-60.5 27q-45 0 -74.5 -45t-29.5 -90v-688h-215zM109 1221q0 76 37 118.5t110 42.5q41 0 88 -24t85 -48t58 -24q43 0 43 47v49h84q27 -46 27 -86q0 -74 -39 -117.5 t-113 -43.5q-40 0 -86 24.5t-84 49t-59 24.5q-41 0 -41 -47v-47h-84q-26 36 -26 82z" />
<glyph unicode="&#xf2;" d="M70 299v383q0 145 83.5 231t219.5 86q135 0 218 -86t83 -231v-383q0 -146 -83 -230.5t-218 -84.5q-137 0 -220 84.5t-83 230.5zM150 1389h206l78 -281h-121zM281 258q0 -45 24.5 -72.5t67.5 -27.5q41 0 66.5 28t25.5 72v465q0 45 -25.5 73.5t-66.5 28.5 q-43 0 -67.5 -28.5t-24.5 -73.5v-465z" />
<glyph unicode="&#xf3;" d="M70 299v383q0 145 83.5 231t219.5 86q135 0 218 -86t83 -231v-383q0 -146 -83 -230.5t-218 -84.5q-137 0 -220 84.5t-83 230.5zM281 258q0 -45 24.5 -72.5t67.5 -27.5q41 0 66.5 28t25.5 72v465q0 45 -25.5 73.5t-66.5 28.5q-43 0 -67.5 -28.5t-24.5 -73.5v-465z M315 1108l76 281h209l-164 -281h-121z" />
<glyph unicode="&#xf4;" d="M70 299v383q0 145 83.5 231t219.5 86q135 0 218 -86t83 -231v-383q0 -146 -83 -230.5t-218 -84.5q-137 0 -220 84.5t-83 230.5zM123 1128v58q57 0 102.5 49t69.5 145h170q26 -96 72 -145t104 -49v-58q-43 -14 -92 -14q-63 0 -108 41t-64 117q-19 -76 -64.5 -117 t-109.5 -41q-39 0 -80 14zM281 258q0 -45 24.5 -72.5t67.5 -27.5q41 0 66.5 28t25.5 72v465q0 45 -25.5 73.5t-66.5 28.5q-43 0 -67.5 -28.5t-24.5 -73.5v-465z" />
<glyph unicode="&#xf5;" d="M70 299v383q0 145 83.5 231t219.5 86q135 0 218 -86t83 -231v-383q0 -146 -83 -230.5t-218 -84.5q-137 0 -220 84.5t-83 230.5zM100 1221q0 76 37.5 118.5t110.5 42.5q41 0 88 -24t85 -48t58 -24q43 0 43 47v49h84q27 -46 27 -86q0 -74 -39 -117.5t-113 -43.5 q-40 0 -86 24.5t-84 49t-59 24.5q-41 0 -41 -47v-47h-84q-27 37 -27 82zM281 258q0 -45 24.5 -72.5t67.5 -27.5q41 0 66.5 28t25.5 72v465q0 45 -25.5 73.5t-66.5 28.5q-43 0 -67.5 -28.5t-24.5 -73.5v-465z" />
<glyph unicode="&#xf6;" d="M70 299v383q0 145 83.5 231t219.5 86q135 0 218 -86t83 -231v-383q0 -146 -83 -230.5t-218 -84.5q-137 0 -220 84.5t-83 230.5zM154 1147v199h168v-199h-168zM281 258q0 -45 24.5 -72.5t67.5 -27.5q41 0 66.5 28t25.5 72v465q0 45 -25.5 73.5t-66.5 28.5 q-43 0 -67.5 -28.5t-24.5 -73.5v-465zM424 1147v199h170v-199h-170z" />
<glyph unicode="&#xf8;" d="M18 2l84 137q-32 72 -32 160v383q0 145 83.5 231t219.5 86q129 0 209 -77l71 114l74 -55q-39 -63 -86 -141q33 -71 33 -158v-383q0 -146 -83 -230.5t-218 -84.5q-134 0 -211 77l-72 -116zM281 256q0 -45 24 -71.5t68 -26.5q41 0 66.5 28t25.5 72v295q0 1 -46 -73.5 t-92 -149.5zM281 428l184 301q-2 42 -27.5 69t-64.5 27q-43 0 -67.5 -28.5t-24.5 -73.5v-295z" />
<glyph unicode="&#xf9;" horiz-adv-x="782" d="M80 227v756h217v-727q0 -44 23.5 -71t60.5 -27q44 0 73 45t29 90v690h215v-983h-182l-10 147q-30 -79 -87.5 -121t-127.5 -42q-101 0 -156 66t-55 177zM168 1389h207l78 -281h-121z" />
<glyph unicode="&#xfa;" horiz-adv-x="782" d="M80 227v756h217v-727q0 -44 23.5 -71t60.5 -27q44 0 73 45t29 90v690h215v-983h-182l-10 147q-30 -79 -87.5 -121t-127.5 -42q-101 0 -156 66t-55 177zM328 1108l75 281h209l-163 -281h-121z" />
<glyph unicode="&#xfb;" horiz-adv-x="782" d="M80 227v756h217v-727q0 -44 23.5 -71t60.5 -27q44 0 73 45t29 90v690h215v-983h-182l-10 147q-30 -79 -87.5 -121t-127.5 -42q-101 0 -156 66t-55 177zM137 1128v58q57 0 102.5 49t69.5 145h170q26 -96 72 -145t104 -49v-58q-43 -14 -92 -14q-63 0 -108 41t-64 117 q-19 -76 -64.5 -117t-109.5 -41q-39 0 -80 14z" />
<glyph unicode="&#xfc;" horiz-adv-x="782" d="M80 227v756h217v-727q0 -44 23.5 -71t60.5 -27q44 0 73 45t29 90v690h215v-983h-182l-10 147q-30 -79 -87.5 -121t-127.5 -42q-101 0 -156 66t-55 177zM172 1147v199h168v-199h-168zM442 1147v199h170v-199h-170z" />
<glyph unicode="&#xfd;" horiz-adv-x="681" d="M16 983h209l92 -485l31 -191l29 191l90 485h203l-238 -1014q-19 -79 -37.5 -126.5t-51 -90t-83.5 -61.5t-125 -19h-61v164h45q56 0 76.5 20t33.5 76l17 84zM285 1108l75 281h209l-163 -281h-121z" />
<glyph unicode="&#xfe;" horiz-adv-x="763" d="M82 -322v1686h215v-461q41 51 84 73.5t106 22.5q86 0 146.5 -74t60.5 -180v-507q0 -106 -60.5 -180t-146.5 -74q-63 0 -106 22.5t-84 73.5v-402h-215zM297 272q0 -50 25.5 -80t68.5 -30q44 0 69 30.5t25 86.5v426q0 56 -25 85t-69 29q-43 0 -68.5 -29.5t-25.5 -80.5v-437 z" />
<glyph unicode="&#xff;" horiz-adv-x="681" d="M16 983h209l92 -485l31 -191l29 191l90 485h203l-238 -1014q-19 -79 -37.5 -126.5t-51 -90t-83.5 -61.5t-125 -19h-61v164h45q56 0 76.5 20t33.5 76l17 84zM131 1147v199h168v-199h-168zM401 1147v199h170v-199h-170z" />
<glyph unicode="&#x152;" horiz-adv-x="1290" d="M78 369v614q0 173 101.5 277t281.5 104h780v-219h-397v-336h274v-203h-274v-379h397v-227h-780q-181 0 -282 98.5t-101 270.5zM332 379q0 -82 35 -122t110 -40h111v930h-111q-75 0 -110 -40t-35 -122v-606z" />
<glyph unicode="&#x153;" horiz-adv-x="1136" d="M70 299v383q0 145 77 231t201 86q74 0 135.5 -30.5t96.5 -85.5q32 54 93.5 85t133.5 31q123 0 196.5 -86t73.5 -225v-217h-385v-205q0 -47 24 -75.5t70 -28.5q48 0 72.5 28t24.5 76v90h194v-63q0 -140 -73 -224.5t-197 -84.5q-73 0 -133.5 30t-95.5 84q-34 -54 -95 -84 t-135 -30q-125 0 -201.5 84.5t-76.5 230.5zM279 264q0 -46 25.5 -74t66.5 -28q43 0 68.5 28t25.5 74v453q0 46 -26 75t-68 29q-41 0 -66.5 -29t-25.5 -75v-453zM692 573h187v144q0 46 -25.5 75t-67.5 29q-45 0 -69.5 -28.5t-24.5 -75.5v-144z" />
<glyph unicode="&#x178;" horiz-adv-x="851" d="M-4 1364h266l176 -555l168 555h254l-309 -807v-557h-254v557zM211 1481v198h168v-198h-168zM481 1481v198h170v-198h-170z" />
<glyph unicode="&#x2c6;" horiz-adv-x="567" d="M27 1128v58q57 0 102.5 49t69.5 145h170q26 -96 72 -145t104 -49v-58q-43 -14 -92 -14q-63 0 -108 41t-64 117q-19 -76 -65 -117t-110 -41q-38 0 -79 14z" />
<glyph unicode="&#x2dc;" horiz-adv-x="581" d="M27 1221q0 76 37 118.5t110 42.5q41 0 88 -24t85.5 -48t58.5 -24q43 0 43 47v49h83q27 -46 27 -86q0 -74 -38.5 -117.5t-112.5 -43.5q-40 0 -86.5 24.5t-84.5 49t-59 24.5q-41 0 -41 -47v-47h-84q-26 36 -26 82z" />
<glyph unicode="&#x2000;" horiz-adv-x="861" />
<glyph unicode="&#x2001;" horiz-adv-x="1722" />
<glyph unicode="&#x2002;" horiz-adv-x="861" />
<glyph unicode="&#x2003;" horiz-adv-x="1722" />
<glyph unicode="&#x2004;" horiz-adv-x="574" />
<glyph unicode="&#x2005;" horiz-adv-x="430" />
<glyph unicode="&#x2006;" horiz-adv-x="287" />
<glyph unicode="&#x2007;" horiz-adv-x="287" />
<glyph unicode="&#x2008;" horiz-adv-x="215" />
<glyph unicode="&#x2009;" horiz-adv-x="344" />
<glyph unicode="&#x200a;" horiz-adv-x="95" />
<glyph unicode="&#x2010;" horiz-adv-x="530" d="M51 539v172h428v-172h-428z" />
<glyph unicode="&#x2011;" horiz-adv-x="530" d="M51 539v172h428v-172h-428z" />
<glyph unicode="&#x2012;" horiz-adv-x="530" d="M51 539v172h428v-172h-428z" />
<glyph unicode="&#x2013;" horiz-adv-x="972" d="M129 539v172h717v-172h-717z" />
<glyph unicode="&#x2014;" horiz-adv-x="1460" d="M129 539v172h1204v-172h-1204z" />
<glyph unicode="&#x2018;" horiz-adv-x="331" d="M66 911v234q0 99 57 161t160 62v-61q-51 0 -80 -35t-29 -101h92v-260h-200z" />
<glyph unicode="&#x2019;" horiz-adv-x="331" d="M49 909v60q51 0 80 34.5t29 100.5h-92v260h200v-234q0 -98 -57 -159.5t-160 -61.5z" />
<glyph unicode="&#x201a;" horiz-adv-x="331" d="M49 -135q51 0 80 34.5t29 100.5h-92v260h200v-233q0 -98 -57 -160t-160 -62v60z" />
<glyph unicode="&#x201c;" horiz-adv-x="595" d="M66 911v234q0 99 57 161t160 62v-61q-51 0 -80 -35t-29 -101h92v-260h-200zM332 911v234q0 99 56 161t159 62v-61q-51 0 -80 -35t-29 -101h90v-260h-196z" />
<glyph unicode="&#x201d;" horiz-adv-x="595" d="M49 909v60q51 0 80 34.5t29 100.5h-92v260h200v-234q0 -98 -57 -159.5t-160 -61.5zM313 909v60q51 0 81 34.5t30 100.5h-92v260h196v-234q0 -99 -56 -160t-159 -61z" />
<glyph unicode="&#x201e;" horiz-adv-x="595" d="M49 -135q51 0 80 34.5t29 100.5h-92v260h200v-233q0 -98 -57 -160t-160 -62v60zM313 -135q51 0 81 34.5t30 100.5h-92v260h196v-233q0 -99 -56 -160.5t-159 -61.5v60z" />
<glyph unicode="&#x2022;" horiz-adv-x="581" d="M51 682q0 112 67.5 177t172.5 65q104 0 170.5 -65t66.5 -177t-66.5 -177t-170.5 -65q-105 0 -172.5 65t-67.5 177z" />
<glyph unicode="&#x2026;" horiz-adv-x="1052" d="M82 0v260h197v-260h-197zM426 0v260h201v-260h-201zM772 0v260h199v-260h-199z" />
<glyph unicode="&#x202f;" horiz-adv-x="344" />
<glyph unicode="&#x2039;" horiz-adv-x="485" d="M47 326v141q103 31 177 121.5t100 204.5h100q0 -120 -45.5 -230t-122.5 -168q77 -56 122.5 -164.5t45.5 -230.5h-100q-25 115 -99.5 204.5t-177.5 121.5z" />
<glyph unicode="&#x203a;" horiz-adv-x="485" d="M61 0q0 122 45.5 230.5t122.5 164.5q-77 58 -122.5 168t-45.5 230h101q26 -114 99.5 -204.5t174.5 -121.5v-141q-102 -32 -175.5 -121.5t-98.5 -204.5h-101z" />
<glyph unicode="&#x205f;" horiz-adv-x="430" />
<glyph unicode="&#x2122;" horiz-adv-x="1189" d="M41 1274v90h418v-90h-156v-451h-106v451h-156zM557 823v541h145l93 -301l34 -141l39 141l86 301h150v-541h-98v439l-39 -152l-90 -287h-97l-88 287l-39 152v-439h-96z" />
<glyph unicode="&#x25fc;" horiz-adv-x="983" d="M0 0v983h983v-983h-983z" />
<glyph unicode="&#xfb01;" horiz-adv-x="892" d="M37 797v176h108v76q0 151 71 233t216 82h68v-170h-35q-60 0 -84.5 -28.5t-24.5 -86.5v-106h138v-176h-132v-797h-217v797h-108zM596 0v983h217v-983h-217zM600 1114v207h207v-207h-207z" />
<glyph unicode="&#xfb02;" horiz-adv-x="892" d="M37 797v176h108v76q0 151 71 233t216 82h68v-170h-35q-60 0 -84.5 -28.5t-24.5 -86.5v-106h138v-176h-132v-797h-217v797h-108zM596 0v1364h217v-1364h-217z" />
</font>
</defs>
</svg>
